Just another WordPress.com site

Latest

New Set Uplifting trance: ABM – Demo Set 001

Title Demo Set 001

Author(Mixed by): Another Boy on the Mix

Title: Demo Set

Chapter: 001

TRACKLIST

01. [00:00] Moonman – Galaxia (Ewerkboy’s reinterpretation intro edit)
02. [02:03] Veselin Tasev – Pacific Waves (Adam Nickey Remix)
03. [08:49] Mark Arbor – 7 Suns (Adam Nickey Remix)
04. [14:25] Adam Nickey – Callista
05. [21:32] Jan Oostdyk – Eivissa Eivissa (Original Mix)
06. [27:30] Nitrous Oxide – Aurora (Original Mix)
07. [34:00] Franz Hlusek & Jorge Nava – Cosmic Dreamer (Fast Distance Remix)
08. [39:13] Armin van Buuren pres. Gaia – Tuvan (Andy Blueman Remix)
09. [46:52] Ron Van Den Beuken – Sunset (Original Mix)
10. [53:30] Jorn van Deynhoven – Fastlane (Original Mix)
11. [59:32] Hensha – The Curtain (Underwater’s Blue Remix)
12. [66:04] Ilya Soloviev – Sunwaves (Paul Miller Remix)
13. [72:06] Ferry Tayle & Static Blue – Trapeze (Daniel Kandi’s Emotional Remix)
14. [78:08] David West Feat Andreas Hermansson – Larry Mountains 54 (Juventa Remix)
15. [84:40] Ewerkboy – Ascencion (See the horizon at sunset)

download by tracks from:

http://www.mediafire.com/download.php?wznp9q8bhxd1m8x

PERFORMER “Another Boy on The Mix”
TITLE “Demo Set 001″
FILE “ABM – Demo Set 001.mp3″ MP3
TRACK 01 AUDIO
PERFORMER “Moonman”
TITLE “Galaxia (Ewerkboy’s reinterpretation intro edit)”
INDEX 01 00:00:00
TRACK 02 AUDIO
PERFORMER “Veselin Tasev”
TITLE “Pacific Waves (Adam Nickey Remix)”
INDEX 01 02:03:03
TRACK 03 AUDIO
PERFORMER “Mark Arbor”
TITLE “7 Suns (Adam Nickey Remix)”
INDEX 01 08:49:38
TRACK 04 AUDIO
PERFORMER “Adam Nickey”
TITLE “Callista”
INDEX 01 14:25:64
TRACK 05 AUDIO
PERFORMER “Jan Oostdyk”
TITLE “Eivissa Eivissa (Original Mix)”
INDEX 01 21:32:34
TRACK 06 AUDIO
PERFORMER “Nitrous Oxide”
TITLE “Aurora (Original Mix)”
INDEX 01 27:30:60
TRACK 07 AUDIO
PERFORMER “Franz Hlusek & Jorge Nava”
TITLE “Cosmic Dreamer (Fast Distance Remix)”
INDEX 01 34:00:27
TRACK 08 AUDIO
PERFORMER “Armin van Buuren pres. Gaia”
TITLE “Tuvan (Andy Blueman Remix)”
INDEX 01 39:13:30
TRACK 09 AUDIO
PERFORMER “Ron Van Den Beuken”
TITLE “Sunset (Original Mix)”
INDEX 01 46:52:57
TRACK 10 AUDIO
PERFORMER “Jorn van Deynhoven”
TITLE “Fastlane (Original Mix)”
INDEX 01 53:30:36
TRACK 11 AUDIO
PERFORMER “Hensha”
TITLE “The Curtain (Underwater’s Blue Remix)”
INDEX 01 59:32:55
TRACK 12 AUDIO
PERFORMER “Ilya Soloviev”
TITLE “Sunwaves (Paul Miller Remix)”
INDEX 01 66:04:49
TRACK 13 AUDIO
PERFORMER “Ferry Tayle & Static Blue”
TITLE “Trapeze (Daniel Kandi’s Emotional Remix)”
INDEX 01 72:06:31
TRACK 14 AUDIO
PERFORMER “David West Feat Andreas Hermansson”
TITLE “Larry Mountains 54 (Juventa Remix)”
INDEX 01 78:08:52
TRACK 15 AUDIO
PERFORMER “Ewerkboy”
TITLE “Ascencion (See the horizon at sunset)”
INDEX 01 84:40:29

Hello world!, this is my first track: Ewerk

EWERKBOY – EWERK

Follow

Get every new post delivered to your Inbox.